Скачать Экхарт Толле -Преобразование Страдания в Умиротворение / Eckhart Tolle - Transmuting Suffering into Peace ( книгу / аудиокнигу ) бесплатно

Скачать Экхарт Толле -Преобразование Страдания в Умиротворение / Eckhart Tolle - Transmuting Suffering into Peace файл


Книга позволяет открыть нам огромное количество новых неизведанных миров. Чтение положительно влияет на человека. Это не просто вид досуга, это удовольствие доступеное каждому. Литература передает невообразимое богатство фантазии автора. Мы можем побывать в древности, в высшем обществе, в далеком будущем. Главное достоинство литературы состоит в том, что она раскрывает фантазию. Читая книгу, мы себе представляем образы, окружающую обстановку. Наша фантазия ничем не ограничена. Мы можем представить себе, читая произведение то, что даже автор не писал. Книги содержат много разнообразной информации. Можно прочитать обо всем: о дальних неизведанных странах, разнообразии живой и неживой природы, прославленных личностях и известнейших произведениях искусства. Специальная литература и обучающее видео поможет Вам вырасти в своей профессии, овладеть необходимыми навыками. Книги помогают каждому, кто к ним обращается и ценит. Медицина, психология, техника, кулинария – любые знания могут стать Вашими, независимо от возраста и рода занятий. Книга – терпеливый учитель, подробно объясняющий непонятные, иногда удивительные знания и умения.

Экхарт Толле -Преобразование Страдания в Умиротворение / Eckhart Tolle - Transmuting Suffering into Peace
Страна: Канада
Год выпуска: 2004
Продолжительность: 2:14
Перевод: вшитые субтитры
Язык: Английский
Русские субтитры: есть
Описание: Цель этого интенсива - помочь Вам быть осознанным в настоящем моменте, научиться ощущать его вибрирующую жизненность , которая и есть - Вы.
Только когда Вы интенсивно осознаны в настоящем, есть возможность распознать обуславливающие поведенческие и реактивные шаблоны,
которым Вы бессознательно вручили бразды правления Вашей жизнью и которые претендуют на право называться Вами.
Освобождение от этих шаблонов и инертных реакций и есть - реализация Вашего жизненного предназначения,
жизнь из подлинного присутствия , из глубины истинного "Я Есть".
Узнайте, как Вы можете преобразовать эти шаблоны, эту эмоциональную и психологическую боль и страдания в умиротворение и понимание.
Уроки этой серии:
- исцеление эмоций и старых взаимоотношений,
- исцеление "тела боли",
- поворот от возмущения и обиды к прощению.
Тех.Данные: скрытый текст Общее
Полное имя :Eckhart Tolle - Transmuting Suffering into Peace - 1 of 3.avi
Формат : AVI
Формат/Информация : Audio Video Interleave
Размер файла : 597 Мбайт
Продолжительность : 1 ч. 31 м.
Режим общего битрейта: Переменный
Общий поток : 912 Кбит/сек
Видео
Идентификатор : 0
Формат : MPEG-4 Visual
Профиль формата:Simple@L3
Параметр BVOP формата : Нет
Параметр QPel формата : Нет
Параметр GMC формата : Без точки перехода
Параметр матрицы формата : Default (H.263)
Режим смешивания : Сжатый битовый поток
Идентификатор кодека : DX50
Идентификатор кодека/Подсказка : DivX 5
Продолжительность : 1 ч. 31 м.
Битрейт : 824 Кбит/сек
Ширина : 352 пикселя
Высота : 288 пикселей
Соотношение сторон : 1,222
Частота кадров : 25,000 кадров/сек
Стандарт вещания : PAL
Цветовое пространство : YUV
Субдискретизация насыщенности : 4:2:0
Битовая глубина : 8 бит
Тип развёртки : Прогрессивная
Метод сжатия : С потерями
Бит/(Пиксели*Кадры) : 0.325
Размер потока : 539 Мбайт (90%)
Библиотека кодирования : DivX 1.2.1. Alpha (UTC 2008-12-04)
Аудио
Идентификатор : 1
Формат : MPEG Audio
Версия формата : Version 1
Профиль формата : Layer 3
Режим : Joint stereo
Расширение режима : MS Stereo
Идентификатор кодека : 55
Идентификатор кодека/Подсказка : MP3
Продолжительность : 1 ч. 31 м.
Вид битрейта : Переменный
Битрейт : 64,0 Кбит/сек
Каналы : 2 канала
Частота : 44,1 КГц
Метод сжатия : С потерями
Размер потока : 49,8 Мбайт (8%)
Выравнивание : Соединение по промежуткам
Продолжительность промежутка : 26 мс. (0,65 видеокадр)
Время предзагрузки промежутка : 260 мс.
Библиотека кодирования : LAME3.92
Общее
Полное имя :Eckhart Tolle - Transmuting Suffering into Peace - 2 of 3.avi
Формат : AVI
Формат/Информация : Audio Video Interleave
Размер файла : 549 Мбайт
Продолжительность : 1 ч. 33 м.
Режим общего битрейта: Переменный
Общий поток : 822 Кбит/сек
Библиотека кодирования:VirtualDub build 32839/release
Видео
Идентификатор : 0
Формат : MPEG-4 Visual
Профиль формата:Simple@L3
Параметр BVOP формата : Нет
Параметр QPel формата : Нет
Параметр GMC формата : Без точки перехода
Параметр матрицы формата : Default (H.263)
Режим смешивания : Сжатый битовый поток
Идентификатор кодека : DX50
Идентификатор кодека/Подсказка : DivX 5
Продолжительность : 1 ч. 33 м.
Битрейт : 733 Кбит/сек
Ширина : 352 пикселя
Высота : 288 пикселей
Соотношение сторон : 1,222
Частота кадров : 25,000 кадров/сек
Стандарт вещания : PAL
Цветовое пространство : YUV
Субдискретизация насыщенности : 4:2:0
Битовая глубина : 8 бит
Тип развёртки : Прогрессивная
Метод сжатия : С потерями
Бит/(Пиксели*Кадры) : 0.289
Размер потока : 490 Мбайт (89%)
Библиотека кодирования : DivX 1.2.1. (UTC 2008-12-04)
Аудио
Идентификатор : 1
Формат : MPEG Audio
Версия формата : Version 1
Профиль формата : Layer 3
Режим : Joint stereo
Расширение режима : MS Stereo
Идентификатор кодека : 55
Идентификатор кодека/Подсказка : MP3
Продолжительность : 1 ч. 33 м.
Вид битрейта : Переменный
Битрейт : 64,0 Кбит/сек
Каналы : 2 канала
Частота : 44,1 КГц
Метод сжатия : С потерями
Размер потока :51,1 Мбайт (9%)
Выравнивание : Соединение по промежуткам
Продолжительность промежутка : 26 мс. (0,65 видеокадр)
Время предзагрузки промежутка : 260 мс.
Библиотека кодирования : LAME3.92
Общее
Полное имя :Eckhart Tolle - Transmuting Suffering into Peace - 3 of 3.avi
Формат : AVI
Формат/Информация : Audio Video Interleave
Размер файла : 74,9 Мбайт
Продолжительность : 10 м.
Режим общего битрейта: Переменный
Общий поток : 952 Кбит/сек
Библиотека кодирования:VirtualDub build 32839/release
Видео
Идентификатор : 0
Формат : MPEG-4 Visual
Профиль формата:Simple@L3
Параметр BVOP формата : Нет
Параметр QPel формата : Нет
Параметр GMC формата : Без точки перехода
Параметр матрицы формата : Default (H.263)
Режим смешивания : Сжатый битовый поток
Идентификатор кодека : DX50
Идентификатор кодека/Подсказка : DivX 5
Продолжительность : 10 м.
Битрейт : 866 Кбит/сек
Ширина : 352 пикселя
Высота : 288 пикселей
Соотношение сторон : 1,222
Частота кадров : 25,000 кадров/сек
Стандарт вещания : PAL
Цветовое пространство : YUV
Субдискретизация насыщенности : 4:2:0
Битовая глубина : 8 бит
Тип развёртки : Прогрессивная
Метод сжатия : С потерями
Бит/(Пиксели*Кадры) : 0.342
Размер потока : 68,1 Мбайт (91%)
Библиотека кодирования : DivX 1.2.1. (UTC 2008-12-04)
Аудио
Идентификатор : 1
Формат : MPEG Audio
Версия формата : Version 1
Профиль формата : Layer 3
Режим : Joint stereo
Расширение режима : MS Stereo
Идентификатор кодека : 55
Идентификатор кодека/Подсказка : MP3
Продолжительность : 10 м.
Вид битрейта : Переменный
Битрейт : 64,0 Кбит/сек
Каналы : 2 канала
Частота : 44,1 КГц
Метод сжатия : С потерями
Размер потока : 5,80 Мбайт (8%)
Выравнивание : Соединение по промежуткам
Продолжительность промежутка : 26 мс. (0,65 видеокадр)
Время предзагрузки промежутка : 563 мс. Доп. информация:
Отличия от предыдущей раздачи: скрытый текст 1.Обрезана верхняя чёрная полоса. Как следствие, - изображение
Э.Толле обрело пропорциональный человеческий вид.
2.Добавлены вшитые русские субтитры для удобства дальнейшего
распространения материала и открытия к нему доступа максимально возможному количеству людей. Благодарности: скрытый текст 1.Огромное спасибо Deeksha за предоставляемые исходники
на английском языке и инициативу.
2.Огромная благодарность добровольцам-переводчикам, нашедшим время и терпение
донести этот интенсив до русскоговорящих обесточенных масс.
Людям ,умеющим работать "для других":
Антону Омельченко ,malishi и Zapple Качество видео: DVDRip
Формат видео: AVI
Видео: XviD MPEG-4 codec,352x288, (1,22:1), 848 Kbps, 25,00 кадров/сек
Аудио: MPEG 1 or 2 Audio Layer 3(MP3), 64,0Kbps, 44,1 kHz, 2 Скриншоты

Размер файла: 1.19 GB
Скачать Аудиокнигу:
[related-news]

Похожие статьи

{related-news}
[/related-news]

0 комментариев к Скачать Экхарт Толле -Преобразование Страдания в Умиротворение / Eckhart Tolle - Transmuting Suffering into Peace ( книгу / аудиокнигу ) бесплатно

Оставить отзыв

Имя:*
E-Mail:
Введите код: *
Кликните на изображение чтобы обновить код, если он неразборчив
Рейтинг@Mail.ru Яндекс.Метрика