Скачать TechEd 2012 Russia - доклады конференции ( книгу / аудиокнигу ) бесплатно

Скачать TechEd 2012 Russia - доклады конференции файл


Книга позволяет открыть нам огромное количество новых неизведанных миров. Чтение положительно влияет на человека. Это не просто вид досуга, это удовольствие доступеное каждому. Литература передает невообразимое богатство фантазии автора. Мы можем побывать в древности, в высшем обществе, в далеком будущем. Главное достоинство литературы состоит в том, что она раскрывает фантазию. Читая книгу, мы себе представляем образы, окружающую обстановку. Наша фантазия ничем не ограничена. Мы можем представить себе, читая произведение то, что даже автор не писал. Книги содержат много разнообразной информации. Можно прочитать обо всем: о дальних неизведанных странах, разнообразии живой и неживой природы, прославленных личностях и известнейших произведениях искусства. Специальная литература и обучающее видео поможет Вам вырасти в своей профессии, овладеть необходимыми навыками. Книги помогают каждому, кто к ним обращается и ценит. Медицина, психология, техника, кулинария – любые знания могут стать Вашими, независимо от возраста и рода занятий. Книга – терпеливый учитель, подробно объясняющий непонятные, иногда удивительные знания и умения.

TechEd 2012 Russia - доклады конференции
Год выпуска: 2012
Производитель: TechDays
Сайт производителя: http://betelgeize.org
Продолжительность: 201x~00:40:00
Тип раздаваемого материала: Видеоклипы
Язык: Русский
Описание: Сборник докладов с конференции TechEd 2012 Russia
Файлы примеров: отсутствуют
Формат видео: MP4 Неполный список докладов ALM в настоящий момент Отчет MediaInfo General
Complete name : !TechEd 2012/ALM в настоящий момент/ALM в настоящий момент.mp4
Format : MPEG-4
Format profile : Base Media
Codec ID : isom
File size : 256 MiB
Duration : 58mn 51s
Overall bit rate mode : Variable
Overall bit rate : 607 Kbps
Encoded date : UTC 2012-12-25 15:15:11
Tagged date : UTC 2012-12-25 15:15:11
Video
ID : 1
Format : AVC
Format/Info : Advanced Video Codec
Format profile : High@L3.0
Format settings, CABAC : Yes
Format settings, ReFrames : 4 frames
Codec ID : avc1
Codec ID/Info : Advanced Video Coding
Duration : 58mn 51s
Bit rate : 555 Kbps
Maximum bit rate : 1 904 Kbps
Width : 800 pixels
Height : 452 pixels
Display aspect ratio : 16:9
Frame rate mode : Constant
Frame rate : 25.000 fps
Color space : YUV
Chroma subsampling : 4:2:0
Bit depth : 8 bits
Scan type : Progressive
Bits/(Pixel*Frame) : 0.061
Stream size : 234 MiB (91%)
Writing library : x264 core 119 r2106 07efeb4
Encoding settings : cabac=1 / ref=1 / deblock=1:0:0 / analyse=0x3:0x113 / me=hex / subme=2 / psy=0 / mixed_ref=0 / me_range=16 / chroma_me=1 / trellis=0 / 8x8dct=1 / cqm=0 / deadzone=21,11 / fast_pskip=1 / chroma_qp_offset=0 / threads=3 / sliced_threads=0 / nr=0 / decimate=1 / interlaced=0 / bluray_compat=0 / constrained_intra=0 / bframes=3 / b_pyramid=2 / b_adapt=1 / b_bias=0 / direct=1 / weightb=1 / open_gop=0 / weightp=0 / keyint=250 / keyint_min=25 / scenecut=40 / intra_refresh=0 / rc=crf / mbtree=0 / crf=22.0 / qcomp=0.60 / qpmin=10 / qpmax=51 / qpstep=4 / ip_ratio=1.40 / pb_ratio=1.30 / aq=1:1.00
Language : Russian
Tagged date : UTC 2012-12-25 15:15:14
Audio
ID : 2
Format : AAC
Format/Info : Advanced Audio Codec
Format profile : LC
Codec ID : 40
Duration : 58mn 51s
Bit rate mode : Variable
Bit rate : 48.0 Kbps
Maximum bit rate : 69.0 Kbps
Channel(s) : 1 channel
Channel positions : Front: C
Sampling rate : 48.0 KHz
Compression mode : Lossy
Delay relative to video : 80ms
Stream size : 20.2 MiB (8%)
Language : Russian
Encoded date : UTC 2012-12-25 15:15:13
Tagged date : UTC 2012-12-25 15:15:14 Скриншоты ALM в настоящий момент (на английском) Отчет MediaInfo General
Complete name :/!TechEd 2012/ALM в настоящий момент (на английском)/ALM в настоящий момент (на английском).mp4
Format : MPEG-4
Format profile : Base Media
Codec ID : isom
File size : 256 MiB
Duration : 58mn 51s
Overall bit rate mode : Variable
Overall bit rate : 607 Kbps
Encoded date : UTC 2012-12-29 07:13:45
Tagged date : UTC 2012-12-29 07:13:45
Video
ID : 1
Format : AVC
Format/Info : Advanced Video Codec
Format profile : High@L3.0
Format settings, CABAC : Yes
Format settings, ReFrames : 4 frames
Codec ID : avc1
Codec ID/Info : Advanced Video Coding
Duration : 58mn 51s
Bit rate : 555 Kbps
Maximum bit rate : 1 642 Kbps
Width : 800 pixels
Height : 452 pixels
Display aspect ratio : 16:9
Frame rate mode : Constant
Frame rate : 25.000 fps
Color space : YUV
Chroma subsampling : 4:2:0
Bit depth : 8 bits
Scan type : Progressive
Bits/(Pixel*Frame) : 0.061
Stream size : 234 MiB (91%)
Writing library : x264 core 119 r2106 07efeb4
Encoding settings : cabac=1 / ref=1 / deblock=1:0:0 / analyse=0x3:0x113 / me=hex / subme=2 / psy=0 / mixed_ref=0 / me_range=16 / chroma_me=1 / trellis=0 / 8x8dct=1 / cqm=0 / deadzone=21,11 / fast_pskip=1 / chroma_qp_offset=0 / threads=3 / sliced_threads=0 / nr=0 / decimate=1 / interlaced=0 / bluray_compat=0 / constrained_intra=0 / bframes=3 / b_pyramid=2 / b_adapt=1 / b_bias=0 / direct=1 / weightb=1 / open_gop=0 / weightp=0 / keyint=250 / keyint_min=25 / scenecut=40 / intra_refresh=0 / rc=crf / mbtree=0 / crf=22.0 / qcomp=0.60 / qpmin=10 / qpmax=51 / qpstep=4 / ip_ratio=1.40 / pb_ratio=1.30 / aq=1:1.00
Language : Russian
Tagged date : UTC 2012-12-29 07:13:48
Audio
ID : 2
Format : AAC
Format/Info : Advanced Audio Codec
Format profile : LC
Codec ID : 40
Duration : 58mn 51s
Bit rate mode : Variable
Bit rate : 48.0 Kbps
Maximum bit rate : 75.8 Kbps
Channel(s) : 1 channel
Channel positions : Front: C
Sampling rate : 48.0 KHz
Compression mode : Lossy
Delay relative to video : 80ms
Stream size : 20.2 MiB (8%)
Language : Russian
Encoded date : UTC 2012-12-29 07:13:47
Tagged date : UTC 2012-12-29 07:13:48 Скриншоты App Controller SP1 – или как сделать гибридное облако Отчет MediaInfo General
Complete name : !TechEd 2012/App Controller SP1 – или как сделать гибридное облако/App Controller SP1 – или как сделать гибридное облако.mp4
Format : MPEG-4
Format profile : Base Media
Codec ID : isom
File size : 233 MiB
Duration : 1h 8mn
Overall bit rate mode : Variable
Overall bit rate : 474 Kbps
Encoded date : UTC 2012-12-20 14:49:42
Tagged date : UTC 2012-12-20 14:49:42
Video
ID : 1
Format : AVC
Format/Info : Advanced Video Codec
Format profile : High@L3.0
Format settings, CABAC : Yes
Format settings, ReFrames : 4 frames
Codec ID : avc1
Codec ID/Info : Advanced Video Coding
Duration : 1h 8mn
Bit rate : 422 Kbps
Maximum bit rate : 1 671 Kbps
Width : 800 pixels
Height : 452 pixels
Display aspect ratio : 16:9
Frame rate mode : Constant
Frame rate : 25.000 fps
Color space : YUV
Chroma subsampling : 4:2:0
Bit depth : 8 bits
Scan type : Progressive
Bits/(Pixel*Frame) : 0.047
Stream size : 208 MiB (89%)
Writing library : x264 core 119 r2106 07efeb4
Encoding settings : cabac=1 / ref=1 / deblock=1:0:0 / analyse=0x3:0x113 / me=hex / subme=2 / psy=0 / mixed_ref=0 / me_range=16 / chroma_me=1 / trellis=0 / 8x8dct=1 / cqm=0 / deadzone=21,11 / fast_pskip=1 / chroma_qp_offset=0 / threads=3 / sliced_threads=0 / nr=0 / decimate=1 / interlaced=0 / bluray_compat=0 / constrained_intra=0 / bframes=3 / b_pyramid=2 / b_adapt=1 / b_bias=0 / direct=1 / weightb=1 / open_gop=0 / weightp=0 / keyint=250 / keyint_min=25 / scenecut=40 / intra_refresh=0 / rc=crf / mbtree=0 / crf=22.0 / qcomp=0.60 / qpmin=10 / qpmax=51 / qpstep=4 / ip_ratio=1.40 / pb_ratio=1.30 / aq=1:1.00
Language : Russian
Tagged date : UTC 2012-12-20 14:49:45
Audio
ID : 2
Format : AAC
Format/Info : Advanced Audio Codec
Format profile : LC
Codec ID : 40
Duration : 1h 8mn
Bit rate mode : Variable
Bit rate : 48.0 Kbps
Maximum bit rate : 65.3 Kbps
Channel(s) : 1 channel
Channel positions : Front: C
Sampling rate : 48.0 KHz
Compression mode : Lossy
Delay relative to video : 80ms
Stream size : 23.6 MiB (10%)
Language : Russian
Encoded date : UTC 2012-12-20 14:49:44
Tagged date : UTC 2012-12-20 14:49:45 Скриншоты Exchange 2013: переход и сосуществование (на английском) Отчет MediaInfo General
Complete name :!TechEd 2012/Exchange 2013: переход и сосуществование (на английском)/Exchange 2013: переход и сосуществование (на английском).mp4
Format : MPEG-4
Format profile : Base Media
Codec ID : isom
File size : 183 MiB
Duration : 1h 9mn
Overall bit rate mode : Variable
Overall bit rate : 366 Kbps
Encoded date : UTC 2012-12-29 09:48:10
Tagged date : UTC 2012-12-29 09:48:10
Video
ID : 1
Format : AVC
Format/Info : Advanced Video Codec
Format profile : High@L3.0
Format settings, CABAC : Yes
Format settings, ReFrames : 4 frames
Codec ID : avc1
Codec ID/Info : Advanced Video Coding
Duration : 1h 9mn
Bit rate : 314 Kbps
Maximum bit rate : 2 009 Kbps
Width : 800 pixels
Height : 452 pixels
Display aspect ratio : 16:9
Frame rate mode : Constant
Frame rate : 25.000 fps
Color space : YUV
Chroma subsampling : 4:2:0
Bit depth : 8 bits
Scan type : Progressive
Bits/(Pixel*Frame) : 0.035
Stream size : 157 MiB (86%)
Writing library : x264 core 119 r2106 07efeb4
Encoding settings : cabac=1 / ref=1 / deblock=1:0:0 / analyse=0x3:0x113 / me=hex / subme=2 / psy=0 / mixed_ref=0 / me_range=16 / chroma_me=1 / trellis=0 / 8x8dct=1 / cqm=0 / deadzone=21,11 / fast_pskip=1 / chroma_qp_offset=0 / threads=3 / sliced_threads=0 / nr=0 / decimate=1 / interlaced=0 / bluray_compat=0 / constrained_intra=0 / bframes=3 / b_pyramid=2 / b_adapt=1 / b_bias=0 / direct=1 / weightb=1 / open_gop=0 / weightp=0 / keyint=250 / keyint_min=25 / scenecut=40 / intra_refresh=0 / rc=crf / mbtree=0 / crf=22.0 / qcomp=0.60 / qpmin=10 / qpmax=51 / qpstep=4 / ip_ratio=1.40 / pb_ratio=1.30 / aq=1:1.00
Language : Russian
Tagged date : UTC 2012-12-29 09:48:14
Audio
ID : 2
Format : AAC
Format/Info : Advanced Audio Codec
Format profile : LC
Codec ID : 40
Duration : 1h 9mn
Bit rate mode : Variable
Bit rate : 48.0 Kbps
Maximum bit rate : 75.3 Kbps
Channel(s) : 1 channel
Channel positions : Front: C
Sampling rate : 48.0 KHz
Compression mode : Lossy
Delay relative to video : 80ms
Stream size : 24.0 MiB (13%)
Language : Russian
Encoded date : UTC 2012-12-29 09:48:12
Tagged date : UTC 2012-12-29 09:48:14 Скриншоты Exchange 2013: переход и сосуществование (на русском) Отчет MediaInfo General
Complete name : /!TechEd 2012/Exchange 2013: переход и сосуществование (на русском)/Exchange 2013: переход и сосуществование (на русском).mp4
Format : MPEG-4
Format profile : Base Media
Codec ID : isom
File size : 183 MiB
Duration : 1h 9mn
Overall bit rate mode : Variable
Overall bit rate : 366 Kbps
Encoded date : UTC 2013-01-24 09:44:15
Tagged date : UTC 2013-01-24 09:44:15
Video
ID : 1
Format : AVC
Format/Info : Advanced Video Codec
Format profile : High@L3.0
Format settings, CABAC : Yes
Format settings, ReFrames : 4 frames
Codec ID : avc1
Codec ID/Info : Advanced Video Coding
Duration : 1h 9mn
Bit rate : 314 Kbps
Maximum bit rate : 2 032 Kbps
Width : 800 pixels
Height : 452 pixels
Display aspect ratio : 16:9
Frame rate mode : Constant
Frame rate : 25.000 fps
Color space : YUV
Chroma subsampling : 4:2:0
Bit depth : 8 bits
Scan type : Progressive
Bits/(Pixel*Frame) : 0.035
Stream size : 157 MiB (86%)
Writing library : x264 core 119 r2106 07efeb4
Encoding settings : cabac=1 / ref=1 / deblock=1:0:0 / analyse=0x3:0x113 / me=hex / subme=2 / psy=0 / mixed_ref=0 / me_range=16 / chroma_me=1 / trellis=0 / 8x8dct=1 / cqm=0 / deadzone=21,11 / fast_pskip=1 / chroma_qp_offset=0 / threads=3 / sliced_threads=0 / nr=0 / decimate=1 / interlaced=0 / bluray_compat=0 / constrained_intra=0 / bframes=3 / b_pyramid=2 / b_adapt=1 / b_bias=0 / direct=1 / weightb=1 / open_gop=0 / weightp=0 / keyint=250 / keyint_min=25 / scenecut=40 / intra_refresh=0 / rc=crf / mbtree=0 / crf=22.0 / qcomp=0.60 / qpmin=10 / qpmax=51 / qpstep=4 / ip_ratio=1.40 / pb_ratio=1.30 / aq=1:1.00
Language : Russian
Tagged date : UTC 2013-01-24 09:44:18
Audio
ID : 2
Format : AAC
Format/Info : Advanced Audio Codec
Format profile : LC
Codec ID : 40
Duration : 1h 9mn
Bit rate mode : Variable
Bit rate : 48.0 Kbps
Maximum bit rate : 72.4 Kbps
Channel(s) : 1 channel
Channel positions : Front: C
Sampling rate : 48.0 KHz
Compression mode : Lossy
Delay relative to video : 80ms
Stream size : 24.0 MiB (13%)
Language : Russian
Encoded date : UTC 2013-01-24 09:44:17
Tagged date : UTC 2013-01-24 09:44:18 Скриншоты Exchange 2013: советы и секреты Отчет MediaInfo General
Complete name :!TechEd 2012/Exchange 2013: советы и секреты/Exchange 2013: советы и секреты.mp4
Format : MPEG-4
Format profile : Base Media
Codec ID : isom
File size : 172 MiB
Duration : 59mn 31s
Overall bit rate mode : Variable
Overall bit rate : 404 Kbps
Encoded date : UTC 2012-12-19 21:41:06
Tagged date : UTC 2012-12-19 21:41:06
Video
ID : 1
Format : AVC
Format/Info : Advanced Video Codec
Format profile : High@L3.0
Format settings, CABAC : Yes
Format settings, ReFrames : 4 frames
Codec ID : avc1
Codec ID/Info : Advanced Video Coding
Duration : 59mn 31s
Bit rate : 352 Kbps
Maximum bit rate : 3 184 Kbps
Width : 800 pixels
Height : 452 pixels
Display aspect ratio : 16:9
Frame rate mode : Constant
Frame rate : 25.000 fps
Color space : YUV
Chroma subsampling : 4:2:0
Bit depth : 8 bits
Scan type : Progressive
Bits/(Pixel*Frame) : 0.039
Stream size : 150 MiB (87%)
Writing library : x264 core 119 r2106 07efeb4
Encoding settings : cabac=1 / ref=1 / deblock=1:0:0 / analyse=0x3:0x113 / me=hex / subme=2 / psy=0 / mixed_ref=0 / me_range=16 / chroma_me=1 / trellis=0 / 8x8dct=1 / cqm=0 / deadzone=21,11 / fast_pskip=1 / chroma_qp_offset=0 / threads=3 / sliced_threads=0 / nr=0 / decimate=1 / interlaced=0 / bluray_compat=0 / constrained_intra=0 / bframes=3 / b_pyramid=2 / b_adapt=1 / b_bias=0 / direct=1 / weightb=1 / open_gop=0 / weightp=0 / keyint=250 / keyint_min=25 / scenecut=40 / intra_refresh=0 / rc=crf / mbtree=0 / crf=22.0 / qcomp=0.60 / qpmin=10 / qpmax=51 / qpstep=4 / ip_ratio=1.40 / pb_ratio=1.30 / aq=1:1.00
Language : Russian
Tagged date : UTC 2012-12-19 21:41:09
Audio
ID : 2
Format : AAC
Format/Info : Advanced Audio Codec
Format profile : LC
Codec ID : 40
Duration : 59mn 31s
Bit rate mode : Variable
Bit rate : 48.0 Kbps
Maximum bit rate : 59.3 Kbps
Channel(s) : 1 channel
Channel positions : Front: C
Sampling rate : 48.0 KHz
Compression mode : Lossy
Delay relative to video : 80ms
Stream size : 20.4 MiB (12%)
Language : Russian
Encoded date : UTC 2012-12-19 21:41:08
Tagged date : UTC 2012-12-19 21:41:09 Скриншоты F#: функциональное программирование на службе корпораций, стартапов, исследователей Отчет MediaInfo General
Complete name : /!TechEd 2012/F#: функциональное программирование на службе корпораций, стартапов, исследователей/F#: функциональное программирование на службе корпораций, стартапов, исследователей.mp4
Format : MPEG-4
Format profile : Base Media
Codec ID : isom
File size : 392 MiB
Duration : 1h 36mn
Overall bit rate mode : Variable
Overall bit rate : 568 Kbps
Encoded date : UTC 2012-12-29 07:58:10
Tagged date : UTC 2012-12-29 07:58:10
Video
ID : 1
Format : AVC
Format/Info : Advanced Video Codec
Format profile : High@L3.0
Format settings, CABAC : Yes
Format settings, ReFrames : 4 frames
Codec ID : avc1
Codec ID/Info : Advanced Video Coding
Duration : 1h 36mn
Bit rate : 516 Kbps
Maximum bit rate : 2 954 Kbps
Width : 800 pixels
Height : 452 pixels
Display aspect ratio : 16:9
Frame rate mode : Constant
Frame rate : 25.000 fps
Color space : YUV
Chroma subsampling : 4:2:0
Bit depth : 8 bits
Scan type : Progressive
Bits/(Pixel*Frame) : 0.057
Stream size : 356 MiB (91%)
Writing library : x264 core 119 r2106 07efeb4
Encoding settings : cabac=1 / ref=1 / deblock=1:0:0 / analyse=0x3:0x113 / me=hex / subme=2 / psy=0 / mixed_ref=0 / me_range=16 / chroma_me=1 / trellis=0 / 8x8dct=1 / cqm=0 / deadzone=21,11 / fast_pskip=1 / chroma_qp_offset=0 / threads=3 / sliced_threads=0 / nr=0 / decimate=1 / interlaced=0 / bluray_compat=0 / constrained_intra=0 / bframes=3 / b_pyramid=2 / b_adapt=1 / b_bias=0 / direct=1 / weightb=1 / open_gop=0 / weightp=0 / keyint=250 / keyint_min=25 / scenecut=40 / intra_refresh=0 / rc=crf / mbtree=0 / crf=22.0 / qcomp=0.60 / qpmin=10 / qpmax=51 / qpstep=4 / ip_ratio=1.40 / pb_ratio=1.30 / aq=1:1.00
Language : Russian
Tagged date : UTC 2012-12-29 07:58:15
Audio
ID : 2
Format : AAC
Format/Info : Advanced Audio Codec
Format profile : LC
Codec ID : 40
Duration : 1h 36mn
Bit rate mode : Variable
Bit rate : 48.0 Kbps
Maximum bit rate : 69.2 Kbps
Channel(s) : 1 channel
Channel positions : Front: C
Sampling rate : 48.0 KHz
Compression mode : Lossy
Delay relative to video : 80ms
Stream size : 33.1 MiB (8%)
Language : Russian
Encoded date : UTC 2012-12-29 07:58:13
Tagged date : UTC 2012-12-29 07:58:15 Скриншоты HP и Microsoft: Новое поколение серверов и систем хранения Hewlett Packard для Windows Server 2012 и Microsoft Private Cloud Отчет MediaInfo General
Complete name :/!TechEd 2012/HP и Microsoft: Новое поколение серверов и систем хранения Hewlett Packard для Windows Server 2012 и Microsoft Private Cloud/HP и Microsoft: Новое поколение серверов и систем хранения Hewlett Packard для Windows Server 2012 и Microsoft Private Cloud .mp4
Format : MPEG-4
Format profile : Base Media
Codec ID : isom
File size : 269 MiB
Duration : 1h 6mn
Overall bit rate mode : Variable
Overall bit rate : 568 Kbps
Encoded date : UTC 2012-12-19 18:37:28
Tagged date : UTC 2012-12-19 18:37:28
Video
ID : 1
Format : AVC
Format/Info : Advanced Video Codec
Format profile : High@L3.0
Format settings, CABAC : Yes
Format settings, ReFrames : 4 frames
Codec ID : avc1
Codec ID/Info : Advanced Video Coding
Duration : 1h 6mn
Bit rate : 516 Kbps
Maximum bit rate : 2 088 Kbps
Width : 800 pixels
Height : 452 pixels
Display aspect ratio : 16:9
Frame rate mode : Constant
Frame rate : 25.000 fps
Color space : YUV
Chroma subsampling : 4:2:0
Bit depth : 8 bits
Scan type : Progressive
Bits/(Pixel*Frame) : 0.057
Stream size : 244 MiB (91%)
Writing library : x264 core 119 r2106 07efeb4
Encoding settings : cabac=1 / ref=1 / deblock=1:0:0 / analyse=0x3:0x113 / me=hex / subme=2 / psy=0 / mixed_ref=0 / me_range=16 / chroma_me=1 / trellis=0 / 8x8dct=1 / cqm=0 / deadzone=21,11 / fast_pskip=1 / chroma_qp_offset=0 / threads=3 / sliced_threads=0 / nr=0 / decimate=1 / interlaced=0 / bluray_compat=0 / constrained_intra=0 / bframes=3 / b_pyramid=2 / b_adapt=1 / b_bias=0 / direct=1 / weightb=1 / open_gop=0 / weightp=0 / keyint=250 / keyint_min=25 / scenecut=40 / intra_refresh=0 / rc=crf / mbtree=0 / crf=22.0 / qcomp=0.60 / qpmin=10 / qpmax=51 / qpstep=4 / ip_ratio=1.40 / pb_ratio=1.30 / aq=1:1.00
Language : Russian
Tagged date : UTC 2012-12-19 18:37:31
Audio
ID : 2
Format : AAC
Format/Info : Advanced Audio Codec
Format profile : LC
Codec ID : 40
Duration : 1h 6mn
Bit rate mode : Variable
Bit rate : 48.0 Kbps
Maximum bit rate : 60.9 Kbps
Channel(s) : 1 channel
Channel positions : Front: C
Sampling rate : 48.0 KHz
Compression mode : Lossy
Delay relative to video : 80ms
Stream size : 22.7 MiB (8%)
Language : Russian
Encoded date : UTC 2012-12-19 18:37:30
Tagged date : UTC 2012-12-19 18:37:31 Скриншоты IBM Pure Flex- идеальная платформа для вашего бизнеса Отчет MediaInfo General
Complete name : !TechEd 2012/IBM Pure Flex- идеальная платформа для вашего бизнеса/IBM Pure Flex- идеальная платформа для вашего бизнеса.mp4
Format : MPEG-4
Format profile : Base Media
Codec ID : isom
File size : 395 MiB
Duration : 57mn 42s
Overall bit rate mode : Variable
Overall bit rate : 958 Kbps
Encoded date : UTC 2012-12-20 07:25:52
Tagged date : UTC 2012-12-20 07:25:52
Video
ID : 1
Format : AVC
Format/Info : Advanced Video Codec
Format profile : High@L3.0
Format settings, CABAC : Yes
Format settings, ReFrames : 4 frames
Codec ID : avc1
Codec ID/Info : Advanced Video Coding
Duration : 57mn 42s
Bit rate : 906 Kbps
Maximum bit rate : 1 603 Kbps
Width : 800 pixels
Height : 452 pixels
Display aspect ratio : 16:9
Frame rate mode : Constant
Frame rate : 25.000 fps
Color space : YUV
Chroma subsampling : 4:2:0
Bit depth : 8 bits
Scan type : Progressive
Bits/(Pixel*Frame) : 0.100
Stream size : 374 MiB (95%)
Writing library : x264 core 119 r2106 07efeb4
Encoding settings : cabac=1 / ref=1 / deblock=1:0:0 / analyse=0x3:0x113 / me=hex / subme=2 / psy=0 / mixed_ref=0 / me_range=16 / chroma_me=1 / trellis=0 / 8x8dct=1 / cqm=0 / deadzone=21,11 / fast_pskip=1 / chroma_qp_offset=0 / threads=3 / sliced_threads=0 / nr=0 / decimate=1 / interlaced=0 / bluray_compat=0 / constrained_intra=0 / bframes=3 / b_pyramid=2 / b_adapt=1 / b_bias=0 / direct=1 / weightb=1 / open_gop=0 / weightp=0 / keyint=250 / keyint_min=25 / scenecut=40 / intra_refresh=0 / rc=crf / mbtree=0 / crf=22.0 / qcomp=0.60 / qpmin=10 / qpmax=51 / qpstep=4 / ip_ratio=1.40 / pb_ratio=1.30 / aq=1:1.00
Language : Russian
Tagged date : UTC 2012-12-20 07:25:56
Audio
ID : 2
Format : AAC
Format/Info : Advanced Audio Codec
Format profile : LC
Codec ID : 40
Duration : 57mn 42s
Bit rate mode : Variable
Bit rate : 48.0 Kbps
Maximum bit rate : 56.4 Kbps
Channel(s) : 1 channel
Channel positions : Front: C
Sampling rate : 48.0 KHz
Compression mode : Lossy
Delay relative to video : 80ms
Stream size : 19.8 MiB (5%)
Language : Russian
Encoded date : UTC 2012-12-20 07:25:54
Tagged date : UTC 2012-12-20 07:25:56 Скриншоты KPI деятельности ИТ службы: как посчитать эффективность Отчет MediaInfo General
Complete name :/!TechEd 2012/KPI деятельности ИТ службы: как посчитать эффективность/KPI деятельности ИТ службы: как посчитать эффективность.mp4
Format : MPEG-4
Format profile : Base Media
Codec ID : isom
File size : 251 MiB
Duration : 1h 3mn
Overall bit rate mode : Variable
Overall bit rate : 556 Kbps
Encoded date : UTC 2012-12-25 09:10:53
Tagged date : UTC 2012-12-25 09:10:53
Video
ID : 1
Format : AVC
Format/Info : Advanced Video Codec
Format profile : High@L3.0
Format settings, CABAC : Yes
Format settings, ReFrames : 4 frames
Codec ID : avc1
Codec ID/Info : Advanced Video Coding
Duration : 1h 3mn
Bit rate : 504 Kbps
Maximum bit rate : 2 217 Kbps
Width : 800 pixels
Height : 452 pixels
Display aspect ratio : 16:9
Frame rate mode : Constant
Frame rate : 25.000 fps
Color space : YUV
Chroma subsampling : 4:2:0
Bit depth : 8 bits
Scan type : Progressive
Bits/(Pixel*Frame) : 0.056
Stream size : 227 MiB (91%)
Writing library : x264 core 119 r2106 07efeb4
Encoding settings : cabac=1 / ref=1 / deblock=1:0:0 / analyse=0x3:0x113 / me=hex / subme=2 / psy=0 / mixed_ref=0 / me_range=16 / chroma_me=1 / trellis=0 / 8x8dct=1 / cqm=0 / deadzone=21,11 / fast_pskip=1 / chroma_qp_offset=0 / threads=3 / sliced_threads=0 / nr=0 / decimate=1 / interlaced=0 / bluray_compat=0 / constrained_intra=0 / bframes=3 / b_pyramid=2 / b_adapt=1 / b_bias=0 / direct=1 / weightb=1 / open_gop=0 / weightp=0 / keyint=250 / keyint_min=25 / scenecut=40 / intra_refresh=0 / rc=crf / mbtree=0 / crf=22.0 / qcomp=0.60 / qpmin=10 / qpmax=51 / qpstep=4 / ip_ratio=1.40 / pb_ratio=1.30 / aq=1:1.00
Language : Russian
Tagged date : UTC 2012-12-25 09:10:57
Audio
ID : 2
Format : AAC
Format/Info : Advanced Audio Codec
Format profile : LC
Codec ID : 40
Duration : 1h 3mn
Bit rate mode : Variable
Bit rate : 48.0 Kbps
Maximum bit rate : 59.3 Kbps
Channel(s) : 1 channel
Channel positions : Front: C
Sampling rate : 48.0 KHz
Compression mode : Lossy
Delay relative to video : 80ms
Stream size : 21.6 MiB (9%)
Language : Russian
Encoded date : UTC 2012-12-25 09:10:55
Tagged date : UTC 2012-12-25 09:10:57 Скриншоты NAV 2013: обзор функциональных и технологических возможностей новейшей версии Отчет MediaInfo General
Complete name : !TechEd 2012/NAV 2013: обзор функциональных и технологических возможностей новейшей версии/NAV 2013: обзор функциональных и технологических возможностей новейшей версии.mp4
Format : MPEG-4
Format profile : Base Media
Codec ID : isom
File size : 214 MiB
Duration : 57mn 32s
Overall bit rate mode : Variable
Overall bit rate : 519 Kbps
Encoded date : UTC 2012-12-24 12:10:50
Tagged date : UTC 2012-12-24 12:10:50
Video
ID : 1
Format : AVC
Format/Info : Advanced Video Codec
Format profile : High@L3.0
Format settings, CABAC : Yes
Format settings, ReFrames : 4 frames
Codec ID : avc1
Codec ID/Info : Advanced Video Coding
Duration : 57mn 31s
Bit rate : 467 Kbps
Maximum bit rate : 2 303 Kbps
Width : 800 pixels
Height : 452 pixels
Display aspect ratio : 16:9
Frame rate mode : Constant
Frame rate : 25.000 fps
Color space : YUV
Chroma subsampling : 4:2:0
Bit depth : 8 bits
Scan type : Progressive
Bits/(Pixel*Frame) : 0.052
Stream size : 192 MiB (90%)
Writing library : x264 core 119 r2106 07efeb4
Encoding settings : cabac=1 / ref=1 / deblock=1:0:0 / analyse=0x3:0x113 / me=hex / subme=2 / psy=0 / mixed_ref=0 / me_range=16 / chroma_me=1 / trellis=0 / 8x8dct=1 / cqm=0 / deadzone=21,11 / fast_pskip=1 / chroma_qp_offset=0 / threads=3 / sliced_threads=0 / nr=0 / decimate=1 / interlaced=0 / bluray_compat=0 / constrained_intra=0 / bframes=3 / b_pyramid=2 / b_adapt=1 / b_bias=0 / direct=1 / weightb=1 / open_gop=0 / weightp=0 / keyint=250 / keyint_min=25 / scenecut=40 / intra_refresh=0 / rc=crf / mbtree=0 / crf=22.0 / qcomp=0.60 / qpmin=10 / qpmax=51 / qpstep=4 / ip_ratio=1.40 / pb_ratio=1.30 / aq=1:1.00
Language : Russian
Tagged date : UTC 2012-12-24 12:10:53
Audio
ID : 2
Format : AAC
Format/Info : Advanced Audio Codec
Format profile : LC
Codec ID : 40
Duration : 57mn 32s
Bit rate mode : Variable
Bit rate : 48.0 Kbps
Maximum bit rate : 58.8 Kbps
Channel(s) : 1 channel
Channel positions : Front: C
Sampling rate : 48.0 KHz
Compression mode : Lossy
Delay relative to video : 80ms
Stream size : 19.8 MiB (9%)
Language : Russian
Encoded date : UTC 2012-12-24 12:10:52
Tagged date : UTC 2012-12-24 12:10:53 Скриншоты Буду стараться вставать на раздачу каждый день в 03:00 по Московскому времени и не уходить с неё до 17:00 либо до того момента, пока все активные пиры не завершат свою загрузку.
Внимание: в приведенном списке указаны не все доклады, имеющиеся в раздаче, т.к. нет времени все это оформлять, а мной было дано слово пользователю TroTroll, что я выложу все доклады с TechEd 2012.

Размер файла: 51.99 GB
Скачать Аудиокнигу:
[related-news]

Похожие статьи

{related-news}
[/related-news]

0 комментариев к Скачать TechEd 2012 Russia - доклады конференции ( книгу / аудиокнигу ) бесплатно

Оставить отзыв

Имя:*
E-Mail:
Введите код: *
Кликните на изображение чтобы обновить код, если он неразборчив
Рейтинг@Mail.ru Яндекс.Метрика