Скачать Клиентоориентированный сервис в работе медицинского центра ( книгу / аудиокнигу ) бесплатно

Скачать Клиентоориентированный сервис в работе медицинского центра файл


Книга позволяет открыть нам огромное количество новых неизведанных миров. Чтение положительно влияет на человека. Это не просто вид досуга, это удовольствие доступеное каждому. Литература передает невообразимое богатство фантазии автора. Мы можем побывать в древности, в высшем обществе, в далеком будущем. Главное достоинство литературы состоит в том, что она раскрывает фантазию. Читая книгу, мы себе представляем образы, окружающую обстановку. Наша фантазия ничем не ограничена. Мы можем представить себе, читая произведение то, что даже автор не писал. Книги содержат много разнообразной информации. Можно прочитать обо всем: о дальних неизведанных странах, разнообразии живой и неживой природы, прославленных личностях и известнейших произведениях искусства. Специальная литература и обучающее видео поможет Вам вырасти в своей профессии, овладеть необходимыми навыками. Книги помогают каждому, кто к ним обращается и ценит. Медицина, психология, техника, кулинария – любые знания могут стать Вашими, независимо от возраста и рода занятий. Книга – терпеливый учитель, подробно объясняющий непонятные, иногда удивительные знания и умения.

Клиентоориентированный сервис в работе медицинского центра
Страна: Россия
Тематика: медицина
Тип раздаваемого материала: Видеоурок
Продолжительность: 01:42:48
Год выпуска: 2013
Язык: Русский
Перевод: Не требуется
Описание: Видеозапись семинара-практикума "Клиентоориентированный сервис в работе медицинского центра"
Ведущий: бизнес-консультант Светлана Лушникова MediaInfo Общее
Полное имя : Клиенториентированный сервис (480p).mp4
Формат : MPEG-4
Профиль формата : Base Media
Идентификатор кодека : isom
Размер файла : 680 Мбайт
Продолжительность : 1 ч. 42 м.
Общий поток : 925 Кбит/сек
Программа кодирования : Lavf55.49.100
Видео
Идентификатор : 1
Формат : AVC
Формат/Информация : Advanced Video Codec
Профиль формата : Main@L3.0
Параметр CABAC формата : Да
Параметр ReFrames формата : 3 кадра
Идентификатор кодека : avc1
Идентификатор кодека/Информация : Advanced Video Coding
Продолжительность : 1 ч. 42 м.
Битрейт : 665 Кбит/сек
Ширина : 656 пикселей
Высота : 480 пикселей
Соотношение сторон : 4:3
Соотношение сторон в оригинале : 4:3
Режим частоты кадров : Постоянный
Частота кадров : 25,000 кадров/сек
Цветовое пространство : YUV
Субдискретизация насыщенности : 4:2:0
Битовая глубина : 8 бит
Тип развёртки : Прогрессивная
Бит/(Пиксели*Кадры) : 0.085
Размер потока : 489 Мбайт (72%)
Аудио
Идентификатор : 2
Формат : AAC
Формат/Информация : Advanced Audio Codec
Профиль формата : LC
Идентификатор кодека : 40
Продолжительность : 1 ч. 42 м.
Вид битрейта : Постоянный
Битрейт : 254 Кбит/сек
Каналы : 2 канала
Расположение каналов : Front: L R
Частота : 44,1 КГц
Метод сжатия : С потерями
Размер потока : 186 Мбайт (27%) Качество: DVDRip
Формат: MP4
Сайт тренера: slushnikova.ru Скриншоты

Размер файла: 680.3 MB
Скачать Аудиокнигу:
[related-news]

Похожие статьи

{related-news}
[/related-news]

0 комментариев к Скачать Клиентоориентированный сервис в работе медицинского центра ( книгу / аудиокнигу ) бесплатно

Оставить отзыв

Имя:*
E-Mail:
Введите код: *
Кликните на изображение чтобы обновить код, если он неразборчив
Рейтинг@Mail.ru Яндекс.Метрика