Скачать Дизайнер-миллионер ( книгу / аудиокнигу ) бесплатно

Скачать Дизайнер-миллионер файл


Книга позволяет открыть нам огромное количество новых неизведанных миров. Чтение положительно влияет на человека. Это не просто вид досуга, это удовольствие доступеное каждому. Литература передает невообразимое богатство фантазии автора. Мы можем побывать в древности, в высшем обществе, в далеком будущем. Главное достоинство литературы состоит в том, что она раскрывает фантазию. Читая книгу, мы себе представляем образы, окружающую обстановку. Наша фантазия ничем не ограничена. Мы можем представить себе, читая произведение то, что даже автор не писал. Книги содержат много разнообразной информации. Можно прочитать обо всем: о дальних неизведанных странах, разнообразии живой и неживой природы, прославленных личностях и известнейших произведениях искусства. Специальная литература и обучающее видео поможет Вам вырасти в своей профессии, овладеть необходимыми навыками. Книги помогают каждому, кто к ним обращается и ценит. Медицина, психология, техника, кулинария – любые знания могут стать Вашими, независимо от возраста и рода занятий. Книга – терпеливый учитель, подробно объясняющий непонятные, иногда удивительные знания и умения.

Дизайнер-миллионер
Год выпуска: 2013
Автор: Елена Панюкова
Продолжительность: 06:30:00
Тип раздаваемого материала: Мультимедийный диск
Язык: Русский
Описание: Хотите узнать, как можно реально зарабатывать на микростоках?
Каждый день вы будете, получаете удовольствие от работы, рисуя тогда, когда вам хочется. Вы сможете начать зарабатывать на стоках очень быстро и эффективно. Будете знать все подводные камни, с которыми сталкиваются многие. Данный курс для тех, кто уже овладел навыками работы в графических редакторах и хочет зарабатывать на своих изображениях или своих фотографиях. Все что вам нужно это ваше желание, наличие компьютера и доступ в Интернет.
Это простая, наглядная и пошаговая система. Повторяя за автором все шаги, вы достигаете поставленных целей. И уже в первый месяц работы сможете начать зарабатывать деньги.
- Если вы будете владеть всей необходимой информацией.
- Если будете знать, как правильно начать работу и как ее организовать так, чтобы она приносила максимальный доход.
- Если вы иллюстратор или фотограф и хотите зарабатывать хорошие деньги, продавая свои работы. То это отличное руководство к действию. Содержание Изучив курс, вы узнаете:
Что такое микростоки и по каким принципам они работают.
Ключевые правила, придерживаясь которых, можно добиться значительных результатов.
Особенности наиболее популярных микростоков, их сильные и слабые стороны.
Что именно нужно рисовать, чтобы ваши рисунки продавались.
Что выгодней продавать: фотографии или векторные изображения. И почему.
Как зарегистрироваться на наиболее популярных стоках и отправлять ваши работы на экзамен.
Как образуется доход стокового иллюстратора.
Что такое лицензия на стоке и какие типы лицензий бывают.
На какой уровень работ стоит и не стоит равняться.
Как работать на англоязычных сайтах, даже не зная английского языка.
Почему лучше всего для рисования использовать графический планшет.
Какой графический планшет лучше выбрать и где можно посмотреть характеристики планшетов.
Как правильно готовить вектор к отправке на микросток и как правильно сохранить файл.
Как максимально эффективно подобрать ключевые слова, по которым ваши изображения будут искать заказчики.
Что такое релизы и налоговые формы, и как правильно их заполнить.
Какие общие требования предъявляются к изображениям, что они должны и не должны содержать.
Как можно отслеживать статистику ваших продаж.
Какая программа используется для загрузки по FTP. Как правильно настроить и использовать ее.
Что такое реферальная программа и как она поможет повысить вашу прибыль.
Какая программа позволяет управлять файлами и значительно облегчить вашу работу по каталогизации.
Как уменьшить размер вектора и придать вашей работе необходимое качество.
Что такое метаданные и как удобнее и правильнее их заполнять, чтобы ваши работы продавались быстрее.
Как максимально удобно вывести заработанные деньги с микростоков. Системные требования: MS Windows; Pentium II, 333 МГц; ОЗУ 128 Мб; монитор SVGA 800х600; устройство чтения CD/DVD-ROM; звуковая карта; колонки или наушники; мышь.
Видео: AVI, 15,000 кадр/сек, 1000x700, 4367 Kbps
Аудио: PCM, 352.8 Kbps (1 ch) Скриншоты
Отчет MediaInfo скрытый текст бщее
Полное имя : D:dizainerAutoPlayVideoslessons 1.avi
Формат : AVI
Формат/Информация : Audio Video Interleave
Размер файла : 475 Мбайт
Продолжительность : 14 м.
Общий поток : 4725 Кбит/сек
Видео
Идентификатор : 0
Формат : TechSmith
Идентификатор кодека : tscc
Идентификатор кодека/Информация : TechSmith Screen Capture
Продолжительность : 14 м.
Битрейт : 4367 Кбит/сек
Ширина : 1000 пикс.
Высота : 700 пикс.
Соотношение сторон : 1,429
Частота кадров : 15,000 кадр/сек
Бит/(Пиксели*Кадры) : 0.416
Размер потока : 439 Мбайт (92%)
Аудио
Идентификатор : 1
Формат : PCM
Параметр Endianness формата : Little
Параметр Sign формата : Signed
Идентификатор кодека : 1
Идентификатор кодека/Подсказка : Microsoft
Продолжительность : 14 м.
Вид битрейта : Постоянный
Битрейт : 352,8 Кбит/сек
Каналы : 1 канал
Частота : 22,05 КГц
Битовая глубина : 16 бит
Размер потока : 35,5 Мбайт (7%)
Продолжительность промежутка : 999 мс. (14,98 видеокадров)
Время предзагрузки промежутка : 749 ms

Размер файла: 5.79 GB
Скачать Аудиокнигу:
[related-news]

Похожие статьи

{related-news}
[/related-news]

0 комментариев к Скачать Дизайнер-миллионер ( книгу / аудиокнигу ) бесплатно

Оставить отзыв

Имя:*
E-Mail:
Введите код: *
Кликните на изображение чтобы обновить код, если он неразборчив
Рейтинг@Mail.ru Яндекс.Метрика