Скачать [BethesdaGameSudios] Skyrim Creation Kit Tutorial Series [2012, RUS] ( книгу / аудиокнигу ) бесплатно

Скачать [BethesdaGameSudios] Skyrim Creation Kit Tutorial Series [2012, RUS] файл


Книга позволяет открыть нам огромное количество новых неизведанных миров. Чтение положительно влияет на человека. Это не просто вид досуга, это удовольствие доступеное каждому. Литература передает невообразимое богатство фантазии автора. Мы можем побывать в древности, в высшем обществе, в далеком будущем. Главное достоинство литературы состоит в том, что она раскрывает фантазию. Читая книгу, мы себе представляем образы, окружающую обстановку. Наша фантазия ничем не ограничена. Мы можем представить себе, читая произведение то, что даже автор не писал. Книги содержат много разнообразной информации. Можно прочитать обо всем: о дальних неизведанных странах, разнообразии живой и неживой природы, прославленных личностях и известнейших произведениях искусства. Специальная литература и обучающее видео поможет Вам вырасти в своей профессии, овладеть необходимыми навыками. Книги помогают каждому, кто к ним обращается и ценит. Медицина, психология, техника, кулинария – любые знания могут стать Вашими, независимо от возраста и рода занятий. Книга – терпеливый учитель, подробно объясняющий непонятные, иногда удивительные знания и умения.

[BethesdaGameSudios] Skyrim Creation Kit Tutorial Series [2012, RUS]
Год выпуска: 2012
Производитель: Bethesda Game Studios
Сайт производителя: http://betelgeize.org
Продолжительность: 02:01:49
Тип раздаваемого материала: Видеоурок
Язык: Русский (перевели: Кирилл Черняков, Вадим Таушан, Максим Демченко; озвучили: Александр Чернов, Роман Будник)
Описание: Скачанные с Youtube, Gamesmod и собранные в один пакет, переведенные на русский язык уроки к редактору создания игрового мира Creation Kit. Содержание Эпизод 1: Ознакомление
ПК игрокам будет предоставлена возможность использовать те же возможности что и разработчики для создания всего что угодно: начиная от нового комплекта брони и заканчивая двадцати часовым квестом. Разработчики Бесезда ознакомят Вас с особенностями движка и базовыми возможностями Инструментария в 1-ом (из 10-ти) эпизоде обучающего курса.
Озвучил - Александр Чернов
Перевёл - Вадим Таушан
Эпизод 2: Базовые макеты
Второй официальный туториал по инструментарию расскажет о базовых макетах. Для дополнительной информации посетите creationkit.com.
Озвучил - Александр Чернов
Перевёл - Вадим Таушан
Эпизод 3: Базовые макеты - часть 2
Третий официальный туториал по инструментарию покажет обустройство уровня при помощи более продвинутых техник.
Озвучил - Александр Чернов
Перевёл - Вадим Таушан
Эпизод 4: Наполнение уровня
Четвертое видео из нашей серии видео-обучений по использованию инструментария научит вас наполнять уровень различными предметами.
Озвучил - Александр Чернов
Перевёл - Кирилл Черняков
Эпизод 5: Navmesh
Пятый из серии уроков по Creation Kit для Skyrim раскроет перед нами Navmesh, отвечающий за передвижение персонажей с искусственным интеллектом по подземелью. Более подробную информацию вы найдёте на сайте CreationKit.com.
Озвучил - Александр Чернов
Перевёл - Роман Будник
Эпизод 6: Базовые битвы
Шестой урок нашего туториала по инструментарию для скайрима показывает, как размещать врагов на уровне и координировать их патрули. Для более детальной информации посетите creationkit.com
Озвучил - Александр Чернов
Перевёл - Вадим Таушан
Эпизод 7: Ловушки
Седьмой туториал по инструментарию скайрима охватывает активаторы, засады и ловушки, чтобы сделать наше подземелье еще опасней. Для детальной информации посетите creationkit.com
Озвучил - Александр Чернов
Перевёл - Кирилл Черняков
Эпизод 8: Оптимизация
Восьмой эпизод серии видео-уроков по Creation Kit поможет добиться большей производительности в нашем подземелье через оптимизацию рендеринга.
Озвучил - Роман Будник
Перевёл - Александр Чернов
Эпизод 9: Освещение
Еще один туториал по Creation Kit . В этой части подробно расскажут об освещении. Видео полностью переведено на русский язык.
Озвучил - Александр Чернов
Перевёл - Вадим Тоушан
Эпизод 10: Соединение локации
В финальном туториале мы соеденим наше подземелье с окружающим миром, чтобы игроки смогли входить и выходить. Для уточнения деталей посетите creationkit.com
Озвучил - Александр Чернов
Перевёл - Максим Демченко Файлы примеров: присутствуют
Формат видео: MP4
Видео: AVC, 1280x720 / 1920x1080, 16:9, 25 fps, 1050 Kbps / 2053 Kbps
Аудио: AAC, 44.1 kHz, 135 Kbps, 2 ch Скриншоты MediaInfo : Код: General
Complete name                            : TES_5_Skyrim_Туториал_Creation_Kit_Эпизод_9_Освещение.mp4
Format                                   : AVI
Format/Info                              : Audio Video Interleave
File size                                : 329 MiB
Duration                                 : 13mn 19s
Overall bit rate                         : 3 447 Kbps
TCOD                                     : 0
TCDO                                     : 7998000000
Video
ID                                       : 0
Format                                   : MPEG-4 Visual
Format profile                           : Advanced Simple@L5
Format settings, BVOP                    : 2
Format settings, QPel                    : No
Format settings, GMC                     : No warppoints
Format settings, Matrix                  : Default (H.263)
Muxing mode                              : Packed bitstream
Codec ID                                 : XVID
Codec ID/Hint                            : XviD
Duration                                 : 13mn 19s
Bit rate                                 : 1 945 Kbps
Width                                    : 1 920 pixels
Height                                   : 1 080 pixels
Display aspect ratio                     : 16:9
Frame rate                               : 25.000 fps
Color space                              : YUV
Chroma subsampling                       : 4:2:0
Bit depth                                : 8 bits
Scan type                                : Progressive
Compression mode                         : Lossy
Bits/(Pixel*Frame)                       : 0.038
Stream size                              : 185 MiB (56%)
Writing library                          : XviD 64
Audio
ID                                       : 1
Format                                   : PCM
Format settings, Endianness              : Little
Format settings, Sign                    : Signed
Codec ID                                 : 1
Duration                                 : 13mn 19s
Bit rate mode                            : Constant
Bit rate                                 : 1 411.2 Kbps
Channel(s)                               : 2 channels
Sampling rate                            : 44.1 KHz
Bit depth                                : 16 bits
Stream size                              : 135 MiB (41%)
Interleave, duration                     : 250 ms (6.25 video frames)
Interleave, preload duration             : 250 ms
General
Complete name                            : TES_5_Skyrim_Туториал_Creation_Kit_Эпизод_10_Соединение_локаций.mp4
Format                                   : AVI
Format/Info                              : Audio Video Interleave
File size                                : 218 MiB
Duration                                 : 9mn 1s
Overall bit rate                         : 3 369 Kbps
TCOD                                     : 0
TCDO                                     : 5419200000
Video
ID                                       : 0
Format                                   : MPEG-4 Visual
Format profile                           : Advanced Simple@L5
Format settings, BVOP                    : 2
Format settings, QPel                    : No
Format settings, GMC                     : No warppoints
Format settings, Matrix                  : Default (H.263)
Muxing mode                              : Packed bitstream
Codec ID                                 : XVID
Codec ID/Hint                            : XviD
Duration                                 : 9mn 1s
Bit rate                                 : 1 866 Kbps
Width                                    : 1 920 pixels
Height                                   : 1 080 pixels
Display aspect ratio                     : 16:9
Frame rate                               : 25.000 fps
Color space                              : YUV
Chroma subsampling                       : 4:2:0
Bit depth                                : 8 bits
Scan type                                : Progressive
Compression mode                         : Lossy
Bits/(Pixel*Frame)                       : 0.036
Stream size                              : 121 MiB (55%)
Writing library                          : XviD 64
Audio
ID                                       : 1
Format                                   : PCM
Format settings, Endianness              : Little
Format settings, Sign                    : Signed
Codec ID                                 : 1
Duration                                 : 9mn 1s
Bit rate mode                            : Constant
Bit rate                                 : 1 411.2 Kbps
Channel(s)                               : 2 channels
Sampling rate                            : 44.1 KHz
Bit depth                                : 16 bits
Stream size                              : 91.2 MiB (42%)
Interleave, duration                     : 250 ms (6.25 video frames)
Interleave, preload duration             : 250 ms
General
Complete name                            : TES_5_Skyrim_Туториал_Creation_Kit_Эпизод_4_Наполнение_уровня .mp4
Format                                   : MPEG-4
Format profile                           : Base Media / Version 2
Codec ID                                 : mp42
File size                                : 294 MiB
Duration                                 : 18mn 31s
Overall bit rate mode                    : Variable
Overall bit rate                         : 2 218 Kbps
Encoded date                             : UTC 2012-02-25 05:38:16
Tagged date                              : UTC 2012-02-25 05:38:16
gsst                                     : 0
gstd                                     : 1111723
gssd                                     : BD4BC0745HH1343995843235964
gshh                                     : o-o---preferred---comstar-svo2---v14---lscache4.c.youtube.com
Video
ID                                       : 1
Format                                   : AVC
Format/Info                              : Advanced Video Codec
Format profile                           : High@L4.0
Format settings, CABAC                   : Yes
Format settings, ReFrames                : 1 frame
Codec ID                                 : avc1
Codec ID/Info                            : Advanced Video Coding
Duration                                 : 18mn 31s
Bit rate                                 : 2 080 Kbps
Maximum bit rate                         : 7 195 Kbps
Width                                    : 1 920 pixels
Height                                   : 1 080 pixels
Display aspect ratio                     : 16:9
Frame rate mode                          : Constant
Frame rate                               : 25.000 fps
Color space                              : YUV
Chroma subsampling                       : 4:2:0
Bit depth                                : 8 bits
Scan type                                : Progressive
Bits/(Pixel*Frame)                       : 0.040
Stream size                              : 276 MiB (94%)
Tagged date                              : UTC 2012-02-25 05:39:09
Audio
ID                                       : 2
Format                                   : AAC
Format/Info                              : Advanced Audio Codec
Format profile                           : LC
Codec ID                                 : 40
Duration                                 : 18mn 31s
Bit rate mode                            : Variable
Bit rate                                 : 136 Kbps
Maximum bit rate                         : 230 Kbps
Channel(s)                               : 2 channels
Channel positions                        : Front: L R
Sampling rate                            : 44.1 KHz
Compression mode                         : Lossy
Stream size                              : 18.0 MiB (6%)
Title                                    : IsoMedia File Produced by Google, 5-11-2011
Encoded date                             : UTC 2012-02-25 05:38:50
Tagged date                              : UTC 2012-02-25 05:39:09
General
Complete name                            : TES_5_Skyrim_Туториал_Creation_Kit_Эпизод_6_Базовые_битвы.mp4
Format                                   : MPEG-4
Format profile                           : Base Media / Version 2
Codec ID                                 : mp42
File size                                : 167 MiB
Duration                                 : 13mn 53s
Overall bit rate mode                    : Variable
Overall bit rate                         : 1 685 Kbps
Encoded date                             : UTC 2012-02-27 10:37:45
Tagged date                              : UTC 2012-02-27 10:37:45
gsst                                     : 0
gstd                                     : 834036
gssd                                     : BD0419BC2HH1343995640058162
gshh                                     : tc.v22.cache7.c.youtube.com
Video
ID                                       : 1
Format                                   : AVC
Format/Info                              : Advanced Video Codec
Format profile                           : High@L4.0
Format settings, CABAC                   : Yes
Format settings, ReFrames                : 1 frame
Codec ID                                 : avc1
Codec ID/Info                            : Advanced Video Coding
Duration                                 : 13mn 53s
Bit rate                                 : 1 550 Kbps
Maximum bit rate                         : 6 358 Kbps
Width                                    : 1 920 pixels
Height                                   : 1 080 pixels
Display aspect ratio                     : 16:9
Frame rate mode                          : Constant
Frame rate                               : 25.000 fps
Color space                              : YUV
Chroma subsampling                       : 4:2:0
Bit depth                                : 8 bits
Scan type                                : Progressive
Bits/(Pixel*Frame)                       : 0.030
Stream size                              : 154 MiB (92%)
Tagged date                              : UTC 2012-02-27 10:37:46
Audio
ID                                       : 2
Format                                   : AAC
Format/Info                              : Advanced Audio Codec
Format profile                           : LC
Codec ID                                 : 40
Duration                                 : 13mn 53s
Bit rate mode                            : Variable
Bit rate                                 : 132 Kbps
Maximum bit rate                         : 213 Kbps
Channel(s)                               : 2 channels
Channel positions                        : Front: L R
Sampling rate                            : 44.1 KHz
Compression mode                         : Lossy
Stream size                              : 13.2 MiB (8%)
Title                                    : IsoMedia File Produced by Google, 5-11-2011
Encoded date                             : UTC 2012-02-27 10:37:46
Tagged date                              : UTC 2012-02-27 10:37:46
General
Complete name                            : TES_5_Skyrim_Туториал_Creation_Kit_Эпизод_7_Ловушки.mp4
Format                                   : MPEG-4
Format profile                           : Base Media / Version 2
Codec ID                                 : mp42
File size                                : 173 MiB
Duration                                 : 12mn 40s
Overall bit rate mode                    : Variable
Overall bit rate                         : 1 904 Kbps
Encoded date                             : UTC 2012-03-01 02:59:03
Tagged date                              : UTC 2012-03-01 02:59:03
gsst                                     : 0
gstd                                     : 760615
gssd                                     : BD4BC0749HH1343995590343445
gshh                                     : o-o---preferred---comstar-svo2---v6---lscache4.c.youtube.com
Video
ID                                       : 1
Format                                   : AVC
Format/Info                              : Advanced Video Codec
Format profile                           : High@L4.0
Format settings, CABAC                   : Yes
Format settings, ReFrames                : 1 frame
Codec ID                                 : avc1
Codec ID/Info                            : Advanced Video Coding
Duration                                 : 12mn 40s
Bit rate                                 : 1 765 Kbps
Maximum bit rate                         : 6 346 Kbps
Width                                    : 1 920 pixels
Height                                   : 1 080 pixels
Display aspect ratio                     : 16:9
Frame rate mode                          : Constant
Frame rate                               : 25.000 fps
Color space                              : YUV
Chroma subsampling                       : 4:2:0
Bit depth                                : 8 bits
Scan type                                : Progressive
Bits/(Pixel*Frame)                       : 0.034
Stream size                              : 160 MiB (93%)
Tagged date                              : UTC 2012-03-01 02:59:04
Audio
ID                                       : 2
Format                                   : AAC
Format/Info                              : Advanced Audio Codec
Format profile                           : LC
Codec ID                                 : 40
Duration                                 : 12mn 40s
Bit rate mode                            : Variable
Bit rate                                 : 137 Kbps
Maximum bit rate                         : 228 Kbps
Channel(s)                               : 2 channels
Channel positions                        : Front: L R
Sampling rate                            : 44.1 KHz
Compression mode                         : Lossy
Stream size                              : 12.4 MiB (7%)
Title                                    : IsoMedia File Produced by Google, 5-11-2011
Encoded date                             : UTC 2012-03-01 02:59:04
Tagged date                              : UTC 2012-03-01 02:59:04
General
Complete name                            : TES_5_Skyrim_Туториал_Creation_Kit_Эпизод_1_Ознакомление.mp4
Format                                   : MPEG-4
Format profile                           : Base Media / Version 2
Codec ID                                 : mp42
File size                                : 133 MiB
Duration                                 : 15mn 41s
Overall bit rate mode                    : Variable
Overall bit rate                         : 1 188 Kbps
Encoded date                             : UTC 2012-02-14 08:53:33
Tagged date                              : UTC 2012-02-14 08:53:33
gsst                                     : 0
gstd                                     : 941963
gssd                                     : BD0419A43HH1343995982349249
gshh                                     : tc.v8.cache6.c.youtube.com
Video
ID                                       : 1
Format                                   : AVC
Format/Info                              : Advanced Video Codec
Format profile                           : High@L3.1
Format settings, CABAC                   : Yes
Format settings, ReFrames                : 1 frame
Codec ID                                 : avc1
Codec ID/Info                            : Advanced Video Coding
Duration                                 : 15mn 41s
Bit rate                                 : 1 050 Kbps
Maximum bit rate                         : 9 308 Kbps
Width                                    : 1 280 pixels
Height                                   : 720 pixels
Display aspect ratio                     : 16:9
Frame rate mode                          : Constant
Frame rate                               : 25.000 fps
Color space                              : YUV
Chroma subsampling                       : 4:2:0
Bit depth                                : 8 bits
Scan type                                : Progressive
Bits/(Pixel*Frame)                       : 0.046
Stream size                              : 118 MiB (88%)
Tagged date                              : UTC 2012-02-14 08:53:34
Audio
ID                                       : 2
Format                                   : AAC
Format/Info                              : Advanced Audio Codec
Format profile                           : LC
Codec ID                                 : 40
Duration                                 : 15mn 41s
Bit rate mode                            : Variable
Bit rate                                 : 135 Kbps
Maximum bit rate                         : 235 Kbps
Channel(s)                               : 2 channels
Channel positions                        : Front: L R
Sampling rate                            : 44.1 KHz
Compression mode                         : Lossy
Stream size                              : 15.2 MiB (11%)
Title                                    : IsoMedia File Produced by Google, 5-11-2011
Encoded date                             : UTC 2012-02-14 08:53:34
Tagged date                              : UTC 2012-02-14 08:53:34
General
Complete name                            : TES_5_Skyrim_Туториал_Creation_Kit_Эпизод_2_Базовые_макеты.mp4
Format                                   : MPEG-4
Format profile                           : Base Media / Version 2
Codec ID                                 : mp42
File size                                : 82.7 MiB
Duration                                 : 10mn 57s
Overall bit rate mode                    : Variable
Overall bit rate                         : 1 055 Kbps
Encoded date                             : UTC 2012-02-15 10:48:48
Tagged date                              : UTC 2012-02-15 10:48:48
gsst                                     : 0
gstd                                     : 657403
gssd                                     : BD0419B03HH1343995938219299
gshh                                     : tc.v13.cache1.c.youtube.com
Video
ID                                       : 1
Format                                   : AVC
Format/Info                              : Advanced Video Codec
Format profile                           : High@L3.1
Format settings, CABAC                   : Yes
Format settings, ReFrames                : 1 frame
Codec ID                                 : avc1
Codec ID/Info                            : Advanced Video Coding
Duration                                 : 10mn 57s
Bit rate                                 : 915 Kbps
Maximum bit rate                         : 4 126 Kbps
Width                                    : 1 280 pixels
Height                                   : 720 pixels
Display aspect ratio                     : 16:9
Frame rate mode                          : Constant
Frame rate                               : 25.000 fps
Color space                              : YUV
Chroma subsampling                       : 4:2:0
Bit depth                                : 8 bits
Scan type                                : Progressive
Bits/(Pixel*Frame)                       : 0.040
Stream size                              : 71.7 MiB (87%)
Tagged date                              : UTC 2012-02-15 10:48:48
Audio
ID                                       : 2
Format                                   : AAC
Format/Info                              : Advanced Audio Codec
Format profile                           : LC
Codec ID                                 : 40
Duration                                 : 10mn 57s
Bit rate mode                            : Variable
Bit rate                                 : 138 Kbps
Maximum bit rate                         : 228 Kbps
Channel(s)                               : 2 channels
Channel positions                        : Front: L R
Sampling rate                            : 44.1 KHz
Compression mode                         : Lossy
Stream size                              : 10.8 MiB (13%)
Title                                    : IsoMedia File Produced by Google, 5-11-2011
Encoded date                             : UTC 2012-02-15 10:48:48
Tagged date                              : UTC 2012-02-15 10:48:48
General
Complete name                            : Thumbs.db
File size                                : 99.0 KiB
General
Complete name                            : TES_5_Skyrim_Туториал_Creation_Kit_Эпизод_3_Базовые_макеты_2.mp4
Format                                   : MPEG-4
Format profile                           : Base Media / Version 2
Codec ID                                 : mp42
File size                                : 217 MiB
Duration                                 : 17mn 35s
Overall bit rate mode                    : Variable
Overall bit rate                         : 1 727 Kbps
Encoded date                             : UTC 2012-02-18 14:11:08
Tagged date                              : UTC 2012-02-18 14:11:08
gsst                                     : 0
gstd                                     : 1055996
gssd                                     : BD4BC0705HH1343995898925343
gshh                                     : o-o---preferred---comstar-svo2---v22---lscache5.c.youtube.com
Video
ID                                       : 1
Format                                   : AVC
Format/Info                              : Advanced Video Codec
Format profile                           : High@L4.0
Format settings, CABAC                   : Yes
Format settings, ReFrames                : 1 frame
Codec ID                                 : avc1
Codec ID/Info                            : Advanced Video Coding
Duration                                 : 17mn
[related-news]

Похожие статьи

{related-news}
[/related-news]

0 комментариев к Скачать [BethesdaGameSudios] Skyrim Creation Kit Tutorial Series [2012, RUS] ( книгу / аудиокнигу ) бесплатно

Оставить отзыв

Имя:*
E-Mail:
Введите код: *
Кликните на изображение чтобы обновить код, если он неразборчив
Рейтинг@Mail.ru Яндекс.Метрика